<?xml version="1.0" standalone="no"?>
<!DOCTYPE svg PUBLIC "-//W3C//DTD SVG 1.1//EN"
  "http://www.w3.org/Graphics/SVG/1.1/DTD/svg11.dtd" >
<svg xmlns="http://www.w3.org/2000/svg">
  <metadata>
    Created by FontForge 20110222 at Wed Nov 21 15:58:00 2012
    By Vitaly,,,
    Copyright (C) 2012 by Fontello project
  </metadata>
  <defs>
    <font id="fontelico" horiz-adv-x="1030">
      <font-face
        font-family="Fontelico"
        font-weight="400"
        font-stretch="normal"
        units-per-em="1000"
        panose-1="2 0 5 3 0 0 0 0 0 0"
        ascent="850"
        descent="-150"
        bbox="13.5197 -155 1963 851.375"
        underline-thickness="50"
        underline-position="-100"
        unicode-range="U+E800-E843"
      />
      <missing-glyph horiz-adv-x="364"
                     d="M33 0v666h265v-666h-265zM66 33h199v600h-199v-600z"/>
      <glyph glyph-name=".notdef" horiz-adv-x="364"
             d="M33 0v666h265v-666h-265zM66 33h199v600h-199v-600z"/>
      <glyph glyph-name="glyph1" unicode="&#xe801;" horiz-adv-x="1029"
             d="M276 800q46 0 78 -42t32 -102t-32 -102.5t-78 -42.5t-77.5 42.5t-31.5 102.5t31.5 102t77.5 42zM924 185q15 16 36.5 16.5t37.5 -15.5t16 -38.5t-15 -38.5q-125 -131 -296 -181.5t-346 -10t-309 166.5l-17 17q-16 16 -16 38t15 38t37 16.5t38 -15.5l12 -12l3 -3
q114 -107 262.5 -140.5t292.5 9.5t249 153zM619 594q-23 0 -38.5 16t-15.5 38t15.5 38t38.5 16h267q22 0 38 -16t16 -38t-16 -38t-38 -16h-267z"/>
      <glyph glyph-name="glyph2" unicode="&#xe813;" horiz-adv-x="803"
             d="M679 800q46 0 77.5 -42t31.5 -102t-31.5 -102.5t-77.5 -42.5t-78 42.5t-32 102.5t32 102t78 42zM336 594h-267q-23 0 -38.5 16t-15.5 38t15.5 38t38.5 16h267q22 0 38 -16t16 -38t-16 -38t-38 -16zM526 23q95 0 182 41q20 9 40 1.5t30 -27.5t2 -40.5t-28 -29.5l1 -1
q-107 -49 -227 -49q-136 0 -253 63q-85 46 -150 120.5t-99 168.5q-8 21 1 41t30 27q21 8 41 -1.5t27 -30.5q33 -90 99 -156.5t156 -99.5q75 -27 148 -27z"/>
      <glyph glyph-name="glyph0" unicode="&#xe800;" horiz-adv-x="1029"
             d="M276 800q46 0 78 -42t32 -102t-32 -102.5t-78 -42.5t-77.5 42.5t-31.5 102.5t31.5 102t77.5 42zM924 185q15 16 36.5 16.5t37.5 -15.5t16 -38.5t-15 -38.5q-125 -131 -296 -181.5t-346 -10t-309 166.5l-17 17q-16 16 -16 38t15 38t37 16.5t38 -15.5l12 -12l3 -3
q114 -107 262.5 -140.5t292.5 9.5t249 153zM753 800q46 0 77.5 -42t31.5 -102t-31.5 -102.5t-77.5 -42.5t-78 42.5t-32 102.5t32 102t78 42z"/>
      <glyph glyph-name="glyph3" unicode="&#xe802;" horiz-adv-x="1029"
             d="M276 800q46 0 78 -42t32 -102t-32 -102.5t-78 -42.5t-77.5 42.5t-31.5 102.5t31.5 102t77.5 42zM924 -84q-106 111 -250 154t-292 9t-262 -141l-15 -15q-16 -16 -38 -15.5t-37 16.5t-15 38t16 38q129 130 302 177t347 2.5t305 -173.5l14 -14q15 -16 15 -38.5t-16 -38.5
t-37.5 -15.5t-36.5 16.5zM753 800q46 0 77.5 -42t31.5 -102t-31.5 -102.5t-77.5 -42.5t-78 42.5t-32 102.5t32 102t78 42z"/>
      <glyph glyph-name="glyph4" unicode="&#xe803;" horiz-adv-x="918"
             d="M322 659q15 18 37.5 20t40.5 -13q17 -15 18 -36.5t-14 -38.5q-34 -40 -82.5 -62.5t-100.5 -22.5q-58 0 -110 27t-86 75q-13 18 -9 40t22 35t40 9t35 -22q32 -46 87 -55t99 23q13 10 23 21zM807 659q15 18 37.5 20t40.5 -13q17 -15 18.5 -36.5t-13.5 -38.5
q-34 -40 -83 -62.5t-101 -22.5q-58 0 -110 27t-86 75q-13 18 -9 40t22 35t40 9t35 -22q32 -46 87 -55t99 23q13 10 23 21zM118 7q-22 0 -38 15.5t-16 38.5q0 22 15.5 37.5t38.5 15.5h682q23 0 38.5 -15.5t15.5 -37.5q0 -23 -16 -38.5t-38 -15.5h-682z"/>
      <glyph glyph-name="glyph5" unicode="&#xe804;" horiz-adv-x="1468"
             d="M907 317q0 -50 33 -50q16 0 27 -11t11 -27t-11 -26.5t-27 -10.5q-12 0 -24 -10q-11 -11 -11 -32.5t11 -32.5q9 -11 24 -11q16 0 27 -10.5t11 -26.5q0 -15 -11 -26.5t-27 -10.5q-16 0 -26 -13q-13 -16 -5 -47q6 -24 30 -24h331q30 1 52.5 22.5t22.5 51.5v253q0 15 -38 104
q-12 27 -33 91t-31 88q-1 3 -5.5 15.5t-8.5 20t-10 17t-14 13t-18 0.5q-30 -6 -40.5 -51t-3 -93.5t21.5 -75.5q10 -19 -1.5 -37t-31.5 -18q-30 0 -119.5 -1.5t-88.5 -2.5q-17 -10 -17 -28zM820 67q-33 41 -31.5 94t31.5 87q-30 37 -30 98q0 52 36 87t87 35l130 -1
q-34 208 93 265q75 19 120.5 -10t75.5 -101q59 -139 73 -172q3 -6 11.5 -26.5t13.5 -32t11 -29.5t9 -33t3 -29v-286q0 -68 -49 -116.5t-117 -50.5l-376 -1q-38 0 -64 17q-40 25 -53.5 80.5t8.5 97.5q14 22 18 27zM536 80q23 4 40.5 -11.5t19.5 -37.5q1 -24 -14 -39.5
t-40 -17.5q-93 -6 -180 19q-113 32 -203 109t-139 186q-9 20 -1.5 40.5t27.5 29.5t41 1.5t30 -27.5q39 -88 111.5 -149.5t162.5 -87.5q74 -20 145 -15zM156 653q-22 0 -37.5 15.5t-15.5 37.5t15.5 38t37.5 16h289q22 0 37.5 -16t15.5 -38t-15.5 -37.5t-37.5 -15.5h-289z
M754 840q45 0 76.5 -42t31.5 -101t-31.5 -100.5t-76.5 -41.5t-76.5 41.5t-31.5 100.5t31.5 101t76.5 42z"/>
      <glyph glyph-name="glyph6" unicode="&#xe805;"
             d="M515 702zM515 702zM515 702zM515 702zM515 702zM515 702zM515 702zM515 702zM254 668v0q1 0 2.5 -1t2.5 -2q8 -6 11 -11q6 -13 2 -24.5t-14 -16.5q-62 -34 -106 -81q-8 -8 -19.5 -22.5t-14.5 -18.5q-11 -12 -25 -11q-13 2 -20 10q-35 41 -50.5 108.5t0.5 130.5
q16 60 58 101q18 16 37 19q14 2 23 -2q16 -6 22 -23l3 -9q1 -8 -0.5 -26.5t0.5 -27.5q7 -41 40 -67v0q10 -8 21 -14v0q15 -8 27 -12zM776 668q12 4 27 12v0q11 6 21 14v0q48 38 40 95q-2 15 0 26q0 1 1 4t1 5q6 16 23 23q9 4 23 2q39 -7 74 -67q12 -19 21 -53
q15 -69 0 -133.5t-50 -105.5q-7 -8 -20 -10q-14 -1 -25 11q-3 4 -14.5 18.5t-19.5 22.5q-47 50 -107 82q-10 6 -14 16.5t2 23.5q3 5 11 11zM792 462q35 -47 35.5 -114t-34.5 -115q-36 -49 -87 -49v0q-57 0 -89.5 51.5t-32.5 110.5v1q0 3 0.5 8.5t0.5 7.5q1 1 3 2t3 2z
M237 462l201 -95q1 -1 3.5 -2t3.5 -2q0 -2 0.5 -7.5t0.5 -8.5v-1q0 -59 -32.5 -110.5t-89.5 -51.5q-56 5 -88 49q-35 48 -35 115.5t36 113.5zM852 73q16 -15 16 -36.5t-15 -37.5q-42 -45 -85 -73q-124 -82 -273 -76v1q-97 4 -179 44.5t-140 103.5q-15 16 -14 38t17 37t38 14
t37 -17q99 -108 245 -115v1q79 -4 153.5 28t122.5 85q14 17 37 18t40 -15z"/>
      <glyph glyph-name="glyph7" unicode="&#xe806;" horiz-adv-x="726"
             d="M380 310h-34q-39 0 -67.5 -28.5t-28.5 -67.5v-162q0 -39 28.5 -67.5t67.5 -28.5v1h34v-1q39 0 67.5 28.5t28.5 67.5v162q0 39 -28.5 67.5t-67.5 28.5zM143 214q0 84 59.5 143.5t143.5 59.5v0h34q84 0 143.5 -59.5t59.5 -143.5v-162q0 -84 -59.5 -143.5t-143.5 -59.5h-34
q-84 0 -143.5 59.5t-59.5 143.5v162zM125 849q46 0 77.5 -42.5t31.5 -102.5t-31.5 -102t-77.5 -42t-78 42t-32 102t32 102.5t78 42.5zM601 849q46 0 78 -42.5t32 -102.5t-32 -102t-78 -42t-78 42t-32 102t32 102.5t78 42.5z"/>
      <glyph glyph-name="glyph8" unicode="&#xe807;" horiz-adv-x="854"
             d="M539 59v72h-224v-73q0 -45 28 -73q29 -29 84 -29t84 29q28 28 28 74zM68 132q-22 0 -37.5 15.5t-15.5 37.5t15.5 38t37.5 16q120 0 359 0.5t359 0.5q22 0 37.5 -16t15.5 -38t-15.5 -37.5t-37.5 -15.5h-140v-74q0 -89 -60 -149t-153 -60q-107 0 -166 60q-59 59 -59 148v74
h-140zM189 800q46 0 78 -42t32 -102t-32 -102.5t-78 -42.5t-78 42.5t-32 102.5t32 102t78 42zM665 800q46 0 78 -42t32 -102t-32 -102.5t-78 -42.5t-77.5 42.5t-31.5 102.5t31.5 102t77.5 42z"/>
      <glyph glyph-name="glyph9" unicode="&#xe808;" horiz-adv-x="1655"
             d="M1068 -154q-84 0 -144 60t-60 145v0v267v4q0 17 13 29.5t30 12.5h605v0q52 0 90 -38t38 -90v-115v0q0 -52 -37.5 -89.5t-90.5 -37.5h-30q-19 -63 -70.5 -105.5t-124.5 -42.5h-219zM1493 266h-522v-211v0q0 -49 33 -79q32 -32 78 -32h202h3q44 1 73.5 31t33.5 70
q1 15 12.5 25t26.5 10h60q17 0 28.5 12t11.5 28v106q0 14 -12 29q-11 11 -28 11zM1413 120v93h32q15 0 26 -11t11 -26v-19q0 -15 -11 -26t-26 -11h-32zM1171 795q12 18 32.5 21.5t38.5 -8.5t22 -32.5t-8 -38.5q-7 -10 -9 -21.5t2 -26.5t7.5 -23t11.5 -26q13 -28 18 -41
t10.5 -37.5t1.5 -40t-17.5 -36.5t-38.5 -40q-17 -13 -38 -10t-34 20t-10.5 38t19.5 34q9 7 10 19.5t-3 22.5t-12 28q-13 28 -19.5 45.5t-11.5 45t2 54t26 53.5zM315 95q-22 0 -37.5 15.5t-15.5 37.5t15.5 37.5t37.5 15.5h288q22 0 37.5 -15.5t15.5 -37.5t-15.5 -37.5
t-37.5 -15.5h-288zM400 540q-17 -15 -40 -13t-37 19v0q-10 12 -24 22q-44 32 -99 23t-87 -55q-13 -18 -35 -22t-40 9t-22 35t9 40q34 48 86 75t110 27q53 0 101 -22t82 -62q15 -17 14 -39t-18 -37zM885 540q-17 -16 -40 -13.5t-37 19.5q-37 47 -104.5 45.5t-105.5 -55.5
q-13 -18 -35 -22t-40 9t-22 35t9 40q34 48 86 75t110 27q53 0 101.5 -22t82.5 -62q15 -17 13.5 -39t-18.5 -37z"/>
      <glyph glyph-name="glyph10" unicode="&#xe809;" horiz-adv-x="1020"
             d="M47 745h926q13 0 22.5 -9.5t9.5 -23.5q-1 -76 -38.5 -146.5t-101 -116t-135.5 -46.5q-62 -1 -119.5 24.5t-99.5 70.5q-42 -45 -99 -70.5t-119 -24.5q-110 2 -193 97t-85 212q0 14 9.5 23.5t22.5 9.5zM857 228q19 -11 24 -32.5t-6 -40.5q-31 -52 -73 -92
q-116 -108 -275 -108v0q-93 0 -170 37q-20 9 -27 30t2 41t29.5 27.5t40.5 -1.5q58 -28 125 -28v0q81 0 149 41.5t108 107.5q11 19 32.5 24t40.5 -6z"/>
      <glyph glyph-name="glyph11" unicode="&#xe80a;" horiz-adv-x="847"
             d="M186 800q46 0 77.5 -42t31.5 -102t-31.5 -102.5t-77.5 -42.5t-78 42.5t-32 102.5t32 102t78 42zM662 800q46 0 78 -42t32 -102t-32 -102.5t-78 -42.5t-78 42.5t-32 102.5t32 102t78 42zM805 -33q20 -11 25.5 -32.5t-5.5 -41.5t-32.5 -25.5t-41.5 5.5l-709 379
q-20 11 -25.5 32.5t5.5 41.5t32.5 25.5t41.5 -5.5z"/>
      <glyph glyph-name="glyph12" unicode="&#xe80b;" horiz-adv-x="1806"
             d="M1220 -146q-84 0 -144.5 60t-60.5 144v0l1 410v3q0 17 12.5 29.5t29.5 12.5h606v0q53 0 90 -37t37 -91v0v-256v0q0 -53 -37.5 -90.5t-90.5 -37.5h-30q-19 -63 -70.5 -105.5t-124.5 -42.5h-218v1zM1224 415h-101l-1 -353v0q0 -48 34 -79q32 -32 77 -32h203h2q44 1 73.5 31
t33.5 70q2 15 13 25.5t26 10.5h60q16 0 28 12t12 28v0v247v1q0 10 -12 28q-12 12 -28 12v-1h-181v-350q0 -16 -17.5 -22.5t-34.5 0t-17 22.5v350h-101v-346q0 -16 -17.5 -22.5t-34.5 0t-17 22.5v346zM1565 149v207h31q15 0 26.5 -11t11.5 -26v-133q0 -15 -11.5 -26
t-26.5 -11h-31zM1615 675q-17 21 -43.5 31t-57.5 -4q-16 -10 -33.5 -6.5t-28.5 17.5q-35 38 -83 37.5t-80 -38.5q-12 -13 -29.5 -16t-32.5 6q-17 12 -36.5 8t-34 -13t-25.5 -22h484zM1499 800q62 19 118 -8.5t85 -74.5q27 -43 24 -91q0 -19 -14 -33t-34 -14h-615
q-20 0 -33.5 13.5t-14.5 32.5q-2 48 24 87.5t65 64.5q44 28 89 29q12 1 24.5 0t17.5 -0.5t14.5 3.5t22.5 11q54 31 117 25t110 -45zM679 800q46 0 77.5 -42t31.5 -102t-31.5 -102.5t-77.5 -42.5t-78 42.5t-32 102.5t32 102t78 42zM336 594h-267q-23 0 -38.5 16t-15.5 38
t15.5 38t38.5 16h267q22 0 38 -16t16 -38t-16 -38t-38 -16zM526 23q95 0 182 41q20 9 40 1.5t30 -27.5t2 -40.5t-28 -29.5l1 -1q-107 -49 -227 -49q-136 0 -253 63q-85 46 -150 120.5t-99 168.5q-8 21 1 41t30 27q21 8 41 -1.5t27 -30.5q33 -90 99 -156.5t156 -99.5
q75 -27 148 -27z"/>
      <glyph glyph-name="glyph13" unicode="&#xe80c;" horiz-adv-x="900"
             d="M132 215q43 -86 125 -140t178 -57q104 -3 194.5 51.5t136.5 145.5h-634zM437 -87q-69 1 -143 29t-135.5 73.5t-102 112.5t-41.5 139q0 22 15 38t37 16h765q22 0 37.5 -15.5t15.5 -37.5q-2 -72 -46 -139.5t-110 -114t-144 -74.5t-148 -27zM212 801q46 0 77.5 -42
t31.5 -102t-31.5 -102t-77.5 -42t-78 42t-32 102t32 102t78 42zM688 801q46 0 78 -42t32 -102t-32 -102t-78 -42t-78 42t-32 102t32 102t78 42z"/>
      <glyph glyph-name="glyph14" unicode="&#xe80d;"
             d="M318 380q-58 0 -91.5 55.5t-29.5 121.5l-152 80q-20 10 -27.5 30.5t2.5 40.5t30.5 27.5t40.5 -2.5q34 -17 108 -55.5t130.5 -66.5t110.5 -52q4 -63 -28 -121t-94 -58zM833 557q4 -66 -30 -121.5t-92 -55.5q-62 0 -93.5 58t-27.5 121q54 24 110.5 52t130.5 66.5t108 55.5
q20 10 40.5 2.5t30.5 -27.5t2 -40.5t-28 -30.5zM924 -84q-106 111 -250 154t-292 9t-262 -141l-15 -15q-16 -16 -38 -15.5t-37 16.5t-15 38t16 38q129 130 302 177t347 2.5t305 -173.5l14 -14q15 -16 15.5 -38.5t-15.5 -38.5t-38 -15.5t-37 16.5z"/>
      <glyph glyph-name="glyph15" unicode="&#xe80e;" horiz-adv-x="1029"
             d="M15 709v0q0 66 167 102q142 30 332 30t333 -30q167 -36 167 -102v0q0 -66 -167 -102q-143 -30 -333 -30t-332 30q-167 36 -167 102zM515 752q-145 0 -248 -12.5t-103 -30.5t103 -30.5t248 -12.5t247.5 12.5t102.5 30.5t-102.5 30.5t-247.5 12.5zM663 285
q-23 0 -38.5 15.5t-15.5 38.5t15.5 38.5t38.5 15.5h186q23 0 38.5 -15.5t15.5 -38.5t-15.5 -38.5t-38.5 -15.5h-186zM181 285q-23 0 -38.5 15.5t-15.5 38.5t15.5 38.5t38.5 15.5h186q23 0 38.5 -15.5t15.5 -38.5t-15.5 -38.5t-38.5 -15.5h-186zM852 76q16 -15 16 -36.5
t-15 -37.5q-42 -45 -85 -73q-124 -82 -273 -76v1q-97 4 -179 44.5t-140 103.5q-15 16 -14 38t17 37t38 14t37 -17q99 -108 245 -115v1q79 -4 153.5 28t122.5 85q14 17 37 18t40 -15z"/>
      <glyph glyph-name="glyph16" unicode="&#xe80f;" horiz-adv-x="881"
             d="M806 471q23 -31 39 -74.5t21 -85.5t-14 -71.5t-62 -29.5t-61.5 29.5t-14 73t18 85t30.5 71.5q11 16 22.5 15.5t20.5 -13.5zM272 241q-95 0 -182 -41v1q-19 -9 -39.5 -1.5t-30.5 26.5q-10 20 -2 41t28 30q109 50 226 50q134 0 253 -64q86 -46 151 -120.5t99 -167.5
q8 -21 -1.5 -41t-30.5 -27q-21 -8 -41 1t-27 30q-33 90 -99 156.5t-156 99.5q-75 27 -148 27zM482 685q-20 10 -27.5 30.5t2.5 40.5t30.5 28t40.5 -2q24 -11 67.5 -32.5t79.5 -39t68 -31.5q0 -3 0.5 -8t0.5 -8v-1q0 -59 -32.5 -111t-89.5 -52q-55 5 -88 50q-39 52 -34 128z
M298 677q4 -66 -30 -122t-91 -56h-1q-57 0 -89 52t-32 111v1q0 3 0.5 8t0.5 8l6 3q40 19 112.5 54t95.5 46q20 10 40.5 2t30.5 -28t2.5 -40.5t-27.5 -30.5z"/>
      <glyph glyph-name="glyph17" unicode="&#xe810;" horiz-adv-x="1978"
             d="M1619 240q-27 -132 -156 -132h-219q-9 -20 -23 -72q-10 -38 -15.5 -55.5t-19.5 -47t-29.5 -43.5t-42 -25.5t-60.5 -11.5q-12 0 -100 -2t-105 1h-1q-35 3 -63 20q-42 26 -65 82t-12 125q5 32 17 66q27 76 85 151t116 114q63 44 134 71q13 48 53.5 80.5t92.5 32.5h275
q36 0 70 -18q31 -17 50 -43h163q7 23 26.5 38.5t45.5 16.5h1h49q32 0 53 -22t23 -54h1v-67h-1v-154q0 -22 -15 -37t-37 -15h-1zM1206 489q-19 0 -32 -13t-14 -31v-2q0 -17 -10 -31t-26 -19q-76 -25 -139 -69v0q-46 -31 -92.5 -92t-68.5 -123q-18 -49 -13 -84q9 -67 42 -68
q33 -4 65.5 -4t71.5 2t63 2q18 0 31.5 17.5t20 36t15.5 53.5q1 2 2 6.5t3.5 13t5.5 17.5t6 19t6 18.5t6 15t5 10.5t3 3q21 46 57 46h249q57 0 57 80q0 22 15 37t37 15l286 -1v101h-1v7q-14 -24 -44 -24h-237q-38 -3 -53 32q-11 28 -39 29h-3h-275zM587 573q-23 0 -38.5 15.5
t-15.5 38.5t15.5 38.5t38.5 15.5h186q23 0 38.5 -15.5t15.5 -38.5t-15.5 -38.5t-38.5 -15.5h-186zM41 15q-18 13 -22.5 34.5t8.5 39.5q39 57 96 104q145 120 334 120v-1q72 0 135 -17q21 -6 32.5 -25t5.5 -40t-25 -32.5t-40 -5.5q-53 15 -108 15v-1q-151 0 -266 -95
q-46 -38 -77 -83q-13 -18 -34 -22t-39 9zM318 491q-58 0 -91.5 56t-29.5 122l-152 80q-20 10 -27.5 30.5t2.5 40.5t30.5 27.5t40.5 -2.5q34 -17 108 -55.5t130.5 -66.5t110.5 -52q4 -63 -28 -121.5t-94 -58.5z"/>
      <glyph glyph-name="glyph18" unicode="&#xe811;" horiz-adv-x="1029"
             d="M924 185q15 16 36.5 16.5t37.5 -15.5t16 -38.5t-15 -38.5q-125 -131 -296 -181.5t-346 -10t-309 166.5l-17 17q-16 16 -16 38t15 38t37 16.5t38 -15.5l12 -12l3 -3q114 -107 262.5 -140.5t292.5 9.5t249 153zM619 499q-23 0 -38.5 15.5t-15.5 38.5t15.5 38.5t38.5 15.5
h267q22 0 38 -15.5t16 -38.5t-16 -38.5t-38 -15.5h-267zM143 499q-23 0 -38.5 15.5t-15.5 38.5t15.5 38.5t38.5 15.5h267q22 0 38 -15.5t16 -38.5t-16 -38.5t-38 -15.5h-267z"/>
      <glyph glyph-name="glyph19" unicode="&#xe812;" horiz-adv-x="923"
             d="M400 581q-17 -16 -40 -13.5t-37 19.5q-37 47 -104.5 46t-105.5 -55q-13 -18 -35 -22t-40 9t-22 34.5t9 39.5q34 48 86 75t110 27q53 0 101 -22t82 -62q15 -17 14 -39t-18 -37zM885 581q-17 -16 -40 -13.5t-37 19.5q-37 47 -104.5 46t-105.5 -55q-13 -18 -35 -22t-40 9
t-22 34.5t9 39.5q34 48 86 75t111 27q53 0 101 -22t82 -62q15 -17 13.5 -39t-18.5 -37zM155 215q43 -86 125 -140t178 -57q104 -3 194.5 51.5t136.5 145.5h-634zM460 -87q-69 1 -143 29t-135.5 73.5t-102 112.5t-41.5 139q0 22 15 38t37 16h765q22 0 37.5 -15.5t15.5 -37.5
q-2 -72 -46 -139.5t-110 -114t-144 -74.5t-148 -27z"/>
      <glyph glyph-name="glyph20" unicode="&#xe830;"
             d="M16 446q35 175 174.5 289.5t320.5 114.5v0q79 0 159 -26q5 -2 7.5 -7t-0.5 -10l-51 -87q-5 -8 -13 -6q-53 14 -102 14v0q-85 0 -158 -34q-79 -35 -135.5 -102t-78.5 -151q-2 -9 -11 -9h-101q-11 0 -11 12v2v0zM676 -107q1 -4 1.5 -7.5t-3.5 -6.5t-8 -4.5t-10 -3.5
t-10.5 -3t-10.5 -2t-8 -2q-59 -14 -117 -14q-102 0 -193 38q-115 47 -196 144.5t-106 221.5q-1 5 2.5 9.5t9.5 4.5h100q10 0 12 -10q17 -68 59 -126q54 -74 135.5 -117t176.5 -43q50 0 103 14q7 1 13 -6zM779 82q50 46 82 119.5t32 153.5v0q0 162 -114 274q-7 7 -2 14l50 87
q3 5 8.5 6t9.5 -3q43 -39 78 -87q92 -130 92 -291q0 -97 -36 -188q-43 -109 -134 -190q-11 -9 -18 4l-50 87q-5 8 2 14v0z"/>
      <glyph glyph-name="glyph21" unicode="&#xe831;"
             d="M78 140q-4 -3 -10.5 -1.5t-7.5 6.5q-24 50 -36 112q-30 156 35 299q5 12 17 4l80 -59q9 -5 4 -14q-25 -63 -25 -135.5t26 -142.5q3 -8 -3 -13zM180 719q45 40 98 69q142 78 297 60q13 -2 9 -15l-31 -94q-3 -10 -13 -8q-38 3 -80 -4q-107 -17 -186 -83q-7 -5 -14 0l-79 57
q-11 8 -1 18zM769 784q92 -52 157.5 -139t87.5 -193q2 -13 -11 -13v-1l-100 1q-9 0 -11 10q-37 142 -166 224q-8 5 -5 13l31 91q2 5 7 7.5t10 -0.5zM1013 249q-14 -63 -37 -112q-68 -145 -205 -222q-5 -3 -10 -0.5t-7 7.5q-5 15 -15 47t-15 47q-3 9 6 14q59 37 102 96
t61 129q2 9 11 9l98 -1q11 0 11 -12v-2zM575 -146q-62 -6 -119 1q-161 19 -276 124q-4 4 -3.5 9.5t4.5 8.5l81 57q9 6 16 -1q33 -27 66 -43q93 -47 200 -41q9 0 12 -8l29 -92q4 -13 -10 -15z"/>
      <glyph glyph-name="glyph22" unicode="&#xe832;"
             d="M861 702l65 60q10 6 19 0.5t10 -13.5l58 -227q6 -23 -7 -35.5t-30 -8.5l-247 50q-11 3 -12.5 12.5t6.5 18.5l59 57q-113 118 -273 118q-151 0 -261 -104.5t-117 -253.5q0 -18 -19 -18h-84h-1.5t-3 1.5t-4.5 3t-3 5.5t-1 9q5 130 72.5 238.5t179 171.5t242.5 63
q207 0 352 -148zM169 -2l-64 -60q-10 -6 -19.5 -0.5t-10.5 13.5l-58 227q-6 23 7 35.5t30 8.5l248 -50q11 -3 12 -12.5t-7 -18.5l-59 -57q113 -118 274 -118q151 0 260.5 104.5t116.5 253.5q0 18 19 18h84h1.5t3 -1.5t4.5 -3t3 -5.5t1 -9q-4 -97 -44.5 -184.5t-106 -151
t-155 -100.5t-187.5 -37q-102 0 -193 39t-160 109z"/>
      <glyph glyph-name="glyph23" unicode="&#xe834;"
             d="M193 734q97 81 219.5 106t243.5 -10.5t212 -126.5q108 -108 137.5 -257t-25.5 -282q-8 -29 -41.5 -38t-56.5 14q-26 26 -12 68q57 121 33.5 258.5t-122.5 236.5q-79 79 -184 110.5t-211.5 10.5t-192.5 -90zM837 -34q-97 -81 -219.5 -106t-243.5 10.5t-212 126.5
q-108 108 -137.5 257t25.5 282q8 29 41.5 38t56.5 -14q26 -26 12 -68q-57 -121 -33.5 -258.5t122.5 -236.5q79 -79 184 -110.5t211.5 -10.5t192.5 90z"/>
      <glyph glyph-name="glyph24" unicode="&#xe838;"
             d="M335 586q-11 -5 -16 5l-91 157q-6 10 4 16l61 35q11 5 16 -5l91 -157q6 -10 -4 -16zM276 525l-35 -60q-5 -10 -16 -5l-158 92q-9 5 -4 15l35 61q5 10 16 4l158 -91q12 -6 4 -16zM220 381v-69q0 -11 -11 -11h-182q-12 0 -12 11v1v69q0 4 3.5 8t8.5 4h182q11 0 11 -12v-1z
M279 170q5 -11 -5 -16l-157 -91q-10 -6 -16 4l-35 61q-5 11 5 16l157 91q10 6 16 -4zM340 111l60 -35q10 -5 5 -16l-92 -158q-5 -9 -15 -4l-61 35q-10 5 -4 16l91 158q6 12 16 4zM484 55h69q11 0 11 -11v-182q0 -12 -11 -12h-1h-69q-5 0 -8.5 4t-3.5 8v182q0 11 12 11h1z
M695 114q11 5 16 -5l91 -157q6 -10 -4 -16l-61 -35q-11 -5 -16 5l-91 157q-6 10 4 16zM754 175l35 60q5 10 16 5l158 -92q9 -5 4 -15l-35 -61q-5 -10 -16 -4l-158 91q-12 6 -4 16zM810 319v69q0 11 11 11h182q12 0 12 -11v-1v-69q0 -4 -3.5 -8t-8.5 -4h-182q-11 0 -11 12v1z
M751 530q-5 11 5 16l157 91q10 6 16 -4l35 -61q5 -11 -5 -16l-157 -91q-10 -6 -16 4zM690 589l-60 35q-10 5 -5 16l92 158q5 9 15 4l61 -35q10 -5 4 -16l-91 -158q-6 -12 -16 -4zM546 645h-69q-11 0 -11 11v182q0 12 11 12h1h69q5 0 8.5 -4t3.5 -8v-182q0 -11 -12 -11h-1z
"/>
      <glyph glyph-name="glyph25" unicode="&#xe839;"
             d="M870 10q-92 -92 -223.5 -121.5t-261 7t-220.5 127.5q-94 94 -130.5 218.5t-9.5 250.5t112 226q22 26 35 34q27 18 60 14.5t57 -27.5q28 -32 26.5 -69.5t-26.5 -64.5q-105 -114 -107.5 -263.5t99.5 -252.5q117 -112 277.5 -98.5t264.5 132.5q81 94 103 214t-26 237
q-63 148 -209.5 211t-300.5 11q178 63 347 -9t241 -242q51 -127 30.5 -257.5t-102.5 -235.5q-16 -22 -36 -42z"/>
      <glyph glyph-name="glyph26" unicode="&#xe840;"
             d="M519 -135q-158 0 -281.5 84t-184.5 223q-65 151 -22 353.5t161 309.5l-6 -157q6 8 38 8.5t40 -8.5q23 45 89 77t131 33q-31 -26 -67.5 -83t-31.5 -91q30 -10 136 -16q8 -3 5 -25.5t-17 -42.5q-12 -16 -36 -28t-43 -16l-18 -5l8 -105l-77 37q-18 -46 15.5 -81.5
t81.5 -27.5q34 6 76 31t66 23q34 -2 50 -18.5t11 -36.5q-4 -13 -19 -19.5t-28 -5.5h-13q-34 -53 -80.5 -75.5t-116.5 -16.5q74 -58 153.5 -52t143.5 46.5t90 92.5q33 76 15.5 162t-58.5 120q48 -21 76.5 -44.5t43.5 -62.5q8 95 -32.5 191.5t-116.5 158.5q148 -43 230 -156
t84 -289q1 -89 -37 -177t-102.5 -157t-158.5 -111.5t-198 -42.5z"/>
      <glyph glyph-name="glyph27" unicode="&#xe841;"
             d="M515 181q-70 0 -119.5 49.5t-49.5 119.5t49.5 119.5t119.5 49.5t119.5 -49.5t49.5 -119.5t-49.5 -119.5t-119.5 -49.5zM438 -144q-181 28 -302 168t-121 326q0 149 82 274l188 -370q36 -80 115 -121t166 -25zM982 530q66 -169 5 -344.5t-222 -268.5q-128 -74 -278 -66
l226 347q52 71 48.5 160.5t-61.5 156.5zM126 664q115 143 295.5 177.5t343.5 -58.5q130 -75 196 -208l-414 22q-88 9 -163 -39t-104 -131z"/>
      <glyph glyph-name="glyph28" unicode="&#xe842;" horiz-adv-x="881"
             d="M441 -150q-103 0 -185.5 43t-133.5 113.5t-79 160t-28 183.5t28 183.5t79 160t133.5 113.5t185.5 43t185.5 -43t133.5 -113.5t79 -160t28 -183.5t-28 -183.5t-79 -160t-133.5 -113.5t-185.5 -43zM441 -58q49 0 87.5 45t58.5 117t29 159t0 174t-29 159t-58.5 117t-87.5 45
t-87.5 -45t-58.5 -117t-29 -159t0 -174t29 -159t58.5 -117t87.5 -45z"/>
      <glyph glyph-name="glyph29" unicode="&#xe843;" horiz-adv-x="993"
             d="M509 -59q-43 0 -89 8q-20 -22 -84.5 -52t-138 -43.5t-122.5 19.5q-77 61 -57 176t92 237t165 224t161 136v13q-98 -31 -206.5 -125.5t-160.5 -175.5q3 82 34 152t81 116t115 78.5t135.5 40t143.5 -0.5q231 138 343 96q45 -16 55 -73.5t-17 -139.5h-20q14 65 12 107.5
t-22.5 62.5t-50 24t-69.5 -7.5t-82 -32t-87 -50.5q148 -42 237.5 -166t68.5 -273h-561q0 -71 27.5 -111t98.5 -40q48 0 80 24.5t41 67.5h301q-40 -128 -157.5 -210t-266.5 -82zM396 -46q-79 19 -145 63.5t-111 107.5q-77 -167 -10 -223q28 -25 118.5 -8t147.5 60zM383 418
h252q0 60 -34.5 94.5t-93.5 34.5q-58 0 -91 -35t-33 -94z"/>
    </font>
</defs>
</svg>
